Details for this torrent 

Lost S01E15 - AVM
Type:
Video > TV shows
Files:
1
Size:
130.05 MiB (136369652 Bytes)
Spoken language(s):
English
Tag(s):
Lost Mobile
Uploaded:
2009-08-06 05:06:41 GMT
By:
SysProfile
Seeders:
0
Leechers:
0
Comments
0  

Info Hash:
0006EBE81828E83EEF6A635C22B92642F865BE7E




(Problems with magnets links are fixed by upgrading your torrent client!)
AVIDMobile - http://www.avidmobile.com.ar (Mobile media)

Video
ID                               : 1
Format                           : MPEG-4 Visual
Format profile                   : [email protected]
Format settings, BVOP            : No
Format settings, QPel            : No
Format settings, GMC             : No warppoints
Format settings, Matrix          : Default (H.263)
Codec ID                         : 20
Duration                         : 41mn 38s
Bit rate mode                    : Variable
Bit rate                         : 370 Kbps
Maximum bit rate                 : 2 055 Kbps
Width                            : 320 pixels
Height                           : 240 pixels
Display aspect ratio             : 4/3
Frame rate mode                  : Variable
Frame rate                       : 23.976 fps
Minimum frame rate               : 23.974 fps
Maximum frame rate               : 23.981 fps
Resolution                       : 24 bits
Colorimetry                      : 4:2:0
Scan type                        : Progressive
Bits/(Pixel*Frame)               : 0.201
Stream size                      : 110 MiB (85%)

Audio
ID                               : 2
Format                           : AAC
Format/Info                      : Advanced Audio Codec
Format version                   : Version 4
Format profile                   : LC
Format settings, SBR             : No
Codec ID                         : 40
Duration                         : 41mn 38s
Bit rate mode                    : Variable
Bit rate                         : 64.8 Kbps
Maximum bit rate                 : 130 Kbps
Channel(s)                       : 2 channels
Channel positions                : L R
Sampling rate                    : 22.05 KHz
Resolution                       : 16 bits
Stream size                      : 19.3 MiB (15%)